General
Unique ID : 223086069004303274727735603165186218527 (0xA7D4D0656412955DAB970BCB7FCFDA1F)
Complete name : The Huntsman Winter\'s War (2016) 1080p WEB-DL Subtitulado [wWw.PelisMEGAHD.Org].mkv
Format : Matroska
Format version : Version 4 / Version 2
File size : 3.72 GiB
Duration : 1h 53mn
Overall bit rate : 4 679 Kbps
Movie name : The Huntsman Winter\'s War (2016) 1080p WEB-DL Subtitulado [wWw.PelisMEGAHD.Org]
Encoded date : UTC 2016-06-16 16:34:38
Writing application : mkvmerge v7.4.0 (\'Circles\') 64bit built on Dec 12 2014 12:19:56
Writing library : libebml v1.3.0 + libmatroska v1.4.1
DURATION : 01:44:21.130000000
NUMBER_OF_FRAMES : 1047
NUMBER_OF_BYTES : 28499
_STATISTICS_WRITING_APP : mkvmerge v7.4.0 (\'Circles\') 64bit built on Dec 12 2014 12:19:56
_STATISTICS_WRITING_DATE_UTC : 2016-06-16 16:34:38
_STATISTICS_TAGS : BPS DURATION NUMBER_OF_FRAMES NUMBER_OF_BYTES

Video
ID : 1
Format : AVC
Format/Info : Advanced Video Codec
Format profile : High@L4.0
Format settings, CABAC : Yes
Format settings, ReFrames : 5 frames
Codec ID : V_MPEG4/ISO/AVC
Duration : 1h 53mn
Bit rate : 4 394 Kbps
Width : 1 916 pixels
Height : 796 pixels
Display aspect ratio : 2.40:1
Frame rate mode : Constant
Frame rate : 23.976 fps
Color space : YUV
Chroma subsampling : 4:2:0
Bit depth : 8 bits
Scan type : Progressive
Bits/(Pixel*Frame) : 0.120
Stream size : 3.50 GiB (94%)
Title : [wWw.PelisMEGAHD.Org]
Language : English
Default : Yes
Forced : No
Color primaries : BT.709
Transfer characteristics : BT.709
Matrix coefficients : BT.709

Audio
ID : 2
Format : AC-3
Format/Info : Audio Coding 3
Mode extension : CM (complete main)
Format settings, Endianness : Big
Codec ID : A_AC3
Duration : 1h 53mn
Bit rate mode : Constant
Bit rate : 192 Kbps
Channel count : 2 channels
Channel positions : Front: L R
Sampling rate : 48.0 KHz
Bit depth : 16 bits
Compression mode : Lossy
Stream size : 157 MiB (4%)
Title : Ingles [wWw.PelisMEGAHD.Org]
Language : English
Default : Yes
Forced : No

Text #1
ID : 3
Format : UTF-8
Codec ID : S_TEXT/UTF8
Codec ID/Info : UTF-8 Plain Text
Title : Sub. Latino [wWw.PelisMEGAHD.Org]
Language : Spanish
Default : Yes
Forced : No

Text #2
ID : 4
Format : UTF-8
Codec ID : S_TEXT/UTF8
Codec ID/Info : UTF-8 Plain Text
Title : Sub. Ingles [wWw.PelisMEGAHD.Org]
Language : English
Default : No
Forced : No


Reportar Error Visitas: 123